* Title: 드림하이 / Dream High
* Genre: School, drama, comedy, romance
* Episodes: 16
* Broadcast network: KBS2
* Broadcast period: 2011-Jan-03 to 2011-Feb-28

Nội dung:
Dream High gồm 16 tập và là câu chuyện về những giấc mơ của các học sinh tại một trường nghệ thuật biểu diễn. Diễn tiến câu chuyện sẽ được thể hiện qua những bài hát và điệu nhảy. Đây là dự án đồng sản xuất từ những công ty giải trí hàng đầu của Hàn Quốc là Keyeast Entertainment và JYP Entertainment. Phần âm nhạc sẽ do giám đốc điều hành Park Jin Young của JYP Entertainment chịu trách nhiệm, còn lập kế hoạch và sản xuất do Bae Yong Joon cổ đông lớn của KEYEAST phụ trách. Bộ phim còn có nhiều tên gọi khác như: Giấc Mơ Cao Thượng, Bay Cao Ước Mơ...
-------------------------------------------------------------------------------------------------------------------------------------------------------------------------
General
Unique ID : 177398424607367353253212555667939688455 (0x8575B19D20F839AA9786BC4F49FE8007)
Complete name : E:\Phim HD\Nhịp Sống Tuổi Trẻ - Dream High - 16 Tập\PlanetPhim-NhipSongTuoiTre_01_720P.mkv
Format : Matroska
File size : 744 MiB
Duration : 1h 5mn
Overall bit rate : 1 585 Kbps
Encoded date : UTC 2011-09-11 15:07:42
Writing application : mkvmerge v3.4.0 ('Rapunzel') built on May 15 2010 09:38:20
Writing library : libebml v0.8.0 + libmatroska v0.9.0

Video
ID : 1
Format : AVC
Format/Info : Advanced Video Codec
Format profile : High@L5.1
Format settings, CABAC : Yes
Format settings, ReFrames : 3 frames
Codec ID : V_MPEG4/ISO/AVC
Duration : 1h 5mn
Bit rate : 1 426 Kbps
Nominal bit rate : 1 500 Kbps
Width : 1 280 pixels
Height : 720 pixels
Display aspect ratio : 16:9
Frame rate : 29.073 fps
Original frame rate : 29.970 fps
Color space : YUV
Chroma subsampling : 4:2:0
Bit depth : 8 bits
Scan type : Progressive
Bits/(Pixel*Frame) : 0.053
Stream size : 669 MiB (90%)
Title : PlanetPhim.com
Writing library : x264 core 104 r1703 cd21d05
Encoding settings : cabac=1 / ref=3 / deblock=1:0:0 / analyse=0x3:0x133 / me=hex / subme=7 / psy=1 / psy_rd=1.00:0.00 / mixed_ref=1 / me_range=16 / chroma_me=1 / trellis=1 / 8x8dct=1 / cqm=0 / deadzone=21,11 / fast_pskip=1 / chroma_qp_offset=-2 / threads=12 / sliced_threads=0 / nr=0 / decimate=1 / interlaced=0 / constrained_intra=0 / bframes=5 / b_pyramid=0 / b_adapt=1 / b_bias=0 / direct=3 / weightb=1 / open_gop=0 / weightp=2 / keyint=250 / keyint_min=25 / scenecut=40 / intra_refresh=0 / rc_lookahead=40 / rc=2pass / mbtree=1 / bitrate=1500 / ratetol=1.0 / qcomp=0.60 / qpmin=10 / qpmax=51 / qpstep=4 / cplxblur=20.0 / qblur=0.5 / ip_ratio=1.40 / aq=1:1.00
Language : Vietnamese

Audio
ID : 2
Format : AC-3
Format/Info : Audio Coding 3
Mode extension : CM (complete main)
Codec ID : A_AC3
Duration : 1h 5mn
Bit rate mode : Constant
Bit rate : 128 Kbps
Channel(s) : 2 channels
Channel positions : Front: L R
Sampling rate : 48.0 KHz
Bit depth : 16 bits
Compression mode : Lossy
Stream size : 60.1 MiB (8%)
Title : PlanetPhim.com
Language : Vietnamese
-------------------------------------------------------------------------------------------------------------------------------------------------------------------------